Soul jazz flac

60 MB Az USB biztonságos eltávolítása segédprogram a kisegítő eszközök könnyű és gyors lecsatlakoztatásához. wav Peak level 96. 0. [Album] Various Artists – Soul Party Hits [FLAC + MP3] [Album] Various Artists – Jazz Divas : The Very Best Of [FLAC + MP3] Album Our 50th release on Section 27 comes from label co-founder Nonima, the followup to his 2009 album "Wrpdata" entitled "Karmadebt". 66 GB (Piano Blues, Easy Listening) [LP] [24/96] Ray Charles - Genius Loves Company - 2004 (Diana Krall, Elton John, Willie Nelson, B. New Orleans Funk~The Original Sound Of Funk 1960-75 (Soul Jazz) [FLAC] {MKOP} Check the title -- New Orleans funk is not the same thing as New Orleans R&B or soul…Lossless / Дискографии (Джаз, Блюз, Соул) » Скачать торрент Amy Winehouse - Discography (2CD)Download VA - Fab Four Classics By Soul And Jazz Stars (2018) (FLAC) or any other file from Music category. Black Velvet is the fourth and final studio album by American funk/soul artist Charles Bradley, released on 9 November 2018. Founded in 1994, Liquid Soul has performed in 42 states and throughout Canada and Japan, plus shows in Germany, Turkey and Mexico. Tran Manh Tuan - Thang Cuoi: Legendary Shepherd On The Moon (2016) lossless Genre: Jazz, Guitar Jazz, Soul Jazz Quality: FLAC btdb. A. My. 6 MB) front. Add to crate. flac (23. 1263 Multilingual USB Safely Remove 6. HDtracks albums of all music genres and styles. Sure, Truth, Liberty & Soul is for the Pastorius fanatics, but it's much more: this fantastically recorded document is a treasure trove of modern progressive jazz. Kind. Amy Fischer. High-quality Music Downloads. Scans 1. Download V. log (7. Hank Mobley - Soul Station 8. 99. cue On our site you can download lossless music for free and without registration, favorite performers in flac format, for fans to listen to vinyl digitization - Vinyl rip, gourmets of the music world who want to listen to multi-channel music are offered - Audio-DVD, SACD, DTS 5. Anyone using their stream in Flac? mp3, wma, flac music albums. Al Gilbert - Graded Jazz Technique. Blue Eyed Devil. Jazz. REM GENRE Jazz REM DATE 2001 REM DISCID C310F60E REM COMMENT "ExactAudioCopy v1. feature comparison JAZZ RADIO - Black Music - Jazz Radio est une station de radio FM créée en 1996 à l'origine sous le nom de Fréquence Jazz. and John Coltrane -- is a treasure trove of spirited, brave, and deeply emotional music that references both past and future. Faruq Z. Soul Ресурс не предоставляет электронные версии произведений, а занимается лишь Various Artists - New Orleans Soul (2014) [FLAC] {Soul Jazz Records SJRCD269 rel 1965-76}/Artwork/Various Artists - New Orleans Soul_Booklet20-21. 2 - Cosmic Visions Of A Latin American Earth: Venezuelan Rock In The 1970s & Beyond Soul Jazz Records World Manifesto by The Souljazz Orchestra, released 07 October 2008 1. They can block or slow you down. ↘ Funk / Soul / Jazz / Reggae / Afro / Latin Vinyl Records. New Orleans~Blues, Soul and Jazz (Metro Select) [FLAC] {MKOP} 13 torrent download locations thepiratebay. 5 MB) 08 - Don't Blame Me (Take 1). FLAC 24/96 & MP3 320. flac (15. Forgiven Disc II01. 03/11/2013 · Lossless Jazz and Blues uploads by eika256 (mostly) Lossless Jazz and Blues uploads by eika256 (mostly) eika256. Out Of Reach 15. They can take legal action if you use torrents or watch streaming videos. release, only released in UK The Porgy And Bess All-Stars - The Jazz Soul Of Porgy & Bess. Jazz Rock. go to album. MP3 $0. On Soul on Jazz, his second release for Heads Up International, co-producer Bailey remakes several jazz …Al Gilbert - Latin Soul Jazz (4/4) mp3, flac. ’s latest offering is an Instrumental Beat Journey Rhythms, Jazz and Politics is a nod to the sentiment of music speaking to the times and reflecting both the beauty and ills of society. 60GB Total play length: 34:29. There was a strong jazz vibe running through some of Philip Bailey’s sides with Earth, Wind & Fire. A digital record collection & a meeting point for us all brothers and sisters! 10 Best Soul Albums Featured on Funk My Soul. Jimmy Smith - Organ Grinder Swing (1965/2018) [SHM-CD] lossless Genre: Soul Jazz, Hard Bop, Piano Jazz Quality: FLAC (image + . Direct download via magnet link. One of the best early-’60s examples of soul/jazz crossover, this record, like several of his dates from the period, featured big-band arrangements (played by the Count Basie band). Track (Jazz-Funk, Soul-Jazz, Hammond) [CD] Johnny Hammond - Gambler's Life (1974) - 2013, FLAC (tracks+. 1 – 25 of 726. Some 46 years after his first pop hit, and 39 years after his death, comes only the second attempt at a comprehensive Sam Cooke collection. Format. 2kHz sastrolyrics • is the best Lyric Search Engine and download, find lyrics for any song, find music by lyrics music, sound of music lyrics, music of the night lyrics, view videos of your favourite artists at the same time, also discography, albums and favorite songs. Buy Compact Disc Chris Hazelton's Boogaloo 7. 2 24/96 24/192 AcousticSounds Alternative Analogue Productions Bandcamp Blues Bruce Springsteen Classical Country DSD64 DST64 e-Onkyo eClassical Electronic Folk Funk HDTracks HIGHRESAUDIO Hip-Hop Hyperion Indie Jazz John Coltrane LINN Metal MFSL Miles Davis This album consists of The Georgia Soul Council as a full 7 piece band, recorded live on April 11th, April 18th, and May 15th 2016 at Milquetone Studio in Acworth, Georgia. Picktorrent: soul jazz records flac - Free Search and Download Torrents at search engine. wav" WAVE Monsieur Dubois - Soul Integration - Monsieur Dubois - Soul Integration. back-inside. info - is a music archive of different styles and trends in a lossless format. Hip Shaker 2. Lossless Albums » FLAC 16 bit » skillkills - THE BEST (2018) FLAC Genres: FLAC 16 bit / Rap / Hip-Hop / Jazz / Soul / Funk / RnB / Collection Best Hits 24-10-2018, 21:27 176 soundmaster All music skillkills Download music lossless FLAC. FLAC · Soul-Jazz · All · 95 Release · 7 Master · Artist · Label. 8 MB) 02 - I've Got A Crush On You. Lossless 13 days. bandcamp. rar MP3 version ZIP / RAR archive 7tor. It is an accomplished effort that ought to put the skeptics in their place while, quite possibly, extending jazz's reach to a wider fanbase7digital Suomi / Hank Soul / Best Relaxing Jazz. of. se New Orleans~Blues, Soul and Jazz (Metro Select) [FLAC] {MKOP} Audio FLAC VA - Out Of The Cool (A Funky Fusion Of Jazz, Latin Soul)@flac 421. Mp3, FLAC, WMA music albums free download. . Piratebay and mediafire. Consequence Of Power 04. 60 MB Az USB biztonságos eltávolítása segédprogram a kisegítő eszközök könnyű és gyors lecsatlakoztatásához. rar MP3 version ZIP / RAR archive Download free new release mp3 The Beatles Plastic Soul 1965 FLAC from zippyshare, uploaded, torrent In 2010, Billy April, now credited under his real name Billy Freeman, revived the project under the name The Drizabone Soul Family, releasing an album titled All the Way with a new line-up of vocalists. Various Artists - Blaxploitation: Soul Jazz & Funk From The Inner City (1996) [FLAC} Jazz Jazz-Pop Jazz Funk Jazz Instrumental Jimmy Smith John Coltrane Kai Winding Live Mainstream Jazz McCoy Tuner Miles Davis MP3 OJC Organ Oscar Peterson Paul Chambers Pharoah Sanders Piano Jazz Post Bop Ray Brown Ron Carter Smooth Jazz Sonny Rollins Sony Soul Jazz Stan Getz Stanley Turrentine Tenor Saxophone Thelonious Monk Tony Williams Trio All popular mp3 flac albums in zip rar archive download free here. Trade-friendly Live Music Archive concerts are available for download and/or streaming in formats including mp3, flac, and ogg vorbis. 8 KB) The Free Music Archive offers free downloads under Creative Commons and other licenses. release, only released in European Union UK = No U. 2 % Track quality 99. 157 Jazz 114 Rock 34 Electronic 16 Funk / Soul 12 Folk, World, & Country All Style. 6 KB) Michael Buble. Klipler Kategorisinde ve Yabancı Albümler Forumunda Bulunan VA - Soul Jazz Records Presents DANCEHALL: The Rise of Jamaican Dancehall Culture (2017) flac Konusunu Görüntülemektesiniz, Konu İçerigi Kısaca ->> Artist : Various flac. 16 GB Начните скачивать торрент Sade FLAC прямо сейчас! Показать больше результатов Скачать бесплатно lossless музыку, форматов flac, ape, SACD и DTS 5. 5 includes support for FLAC Internet Radio. Preview Best Relaxing Jazz. 320kbps MP3 + 320kbps M4A. :Wumpscut: Alternative Ambient Black Metal Blues Classical Country Dance Darkwave Death Metal Electronic Folk Folk-Rock Funk Hardcore Hard Rock Heavy Metal Hip-Hop House Indie Industrial Instrumental Rock Jazz Metal Oldies Pop Progressive Rock Psychedelic Psychedelic Rock Punk Punk Rock R&amp;B R&B Rap Reggae Rock Rock & Roll Ska Soul To immediately find what you need to enter a keyword in the form below. Soul Jazz Records Presents: Country Soul Sisters Rise Of Women In Country Music 1952-74 (2012) FLAC Музыка Funky Sensation (2CD) (2010) FLAC Музыка So Cool - Sax & Soul (2016) FLAC Музыка zip rar archive album Al Gilbert - Latin Soul Jazz (4/4) download mp3 flac wma Download Ray. By using our website, you agree to the use of cookies as described in our Cookie Policy. m3u8 (1. To Support The Artist Purchase The Record here https://alfamist. 0 0 0 22 Feb 2017 Archive of jazz & blues music Jazz Funk, Soul, R&B (lossless - FLAC, APE, etc. Счастливый торрент-трекер Hi-res audio blows MP3s and AAC files out of the water. org BitTorrent трекер ex. . It is a jam-packed collection of original independent old school hip hop, created with just one thing in mind - to get this party jumping. [FLAC] Trax – Cold Hearted Man (EP) April 3, 2010 The TRAX (더 트랙스) - 가슴이 차가운 남자 (EP) Release Date: 2010. Various Artists VENEZUELA 70 Vol. Toro y Moi - Outer Peace (2019) FLAC FLAC 16 bit / Pop / Indie / Electronic / Club. Latin Soul Syndicate - Latin Soul Syndicate. 5. Download Jeff Lorber - Chuck Loeb - Everette Harp / Jazz Funk Soul (Eac Flac Cue) TNT Torrent in HD Quality and All Available Formats. Zip / Rar archives for download free. Jazz Funk Soul flac. a large collection. se New Orleans~Blues, Soul and Jazz (Metro Select) [FLAC] {MKOP} Audio FLAC НаmmеrFаll - Discography (1997-2011) Luca Turilli - Discography (1999-2012 Wings - Wings Greatest (1978 Merry Christmas Ауrеоn - Discography (1995-2008 НаmmеrFаll - Glоrу То Тhе Вrаvе: 20-Yеаr Аnnivеrsаrу Еditiоn [2СD + DVD] (2017 New Orleans Funk~The Original Sound Of Funk 1960-75 (Soul Jazz) [FLAC] {MKOP} Check the title -- New Orleans funk is not the same thing as New Orleans R&B or soul, so this may not be the sound that you're expecting. cue), lossless 278 MB long agoBody And Soul (With Tony Bennett) [0:03:18] 12. 16-bit FLAC; Release Date: 28/07/2017. Read More . Tierra - Latin Disco - Together. Metallica - Metallica (1991/2008) [HDTracks FLAC 24/96] Tags 24-88. Various - …Download Turnabout Jazz Soul soundtracks to your PC in MP3 format. It is an accomplished effort that ought to put the skeptics in their place while, quite possibly, extending jazz's reach to a wider fanbase flageolette (killer choice of funk, soul, jazz-funk, acid-jazz, all @320kbps) flat soul spreading (good soul, funk as it says) flwrpt Brooklyn (little download but nice) Soul CoughingFree Soul Coughing concerts. Format mp3 or flac Jazz Blues and Soul. C. Prev; Next. £10. Here are a few that are working for me. New Orleans Funk~The Original Sound Of Funk 1960-75 (Soul Jazz) [FLAC] {MKOP} Check the title -- New Orleans funk is not the same thing as New Orleans R&B or soul, so this may not be the sound that you're expecting. Sentenced 04. Jazz Funk. Qobuz is also the worldwide leader in 24-Bit Hi-Res downloads. Musicians in this genre sell albums on charts other than jazz, such as pop and R&B. The Circle 03. One of the best early-'60s examples of soul/jazz crossover, this record, like several of his dates from the period, featured big-band arrangements (played by the Count Basie band). KieLoBot Tanzen (K ID 22) Hounds of Darkmoor Jazz, Soul-RnB, 28 Sep 2018 Soul Jazz Records Presents CHRIS BOWDEN: Time Capsule. cue (2. 0; Comments: 0 | Views: 174 | Roy Hargrove - Nothing Serious (2006) lossless Soul Jazz, Hard Bop, Piano Jazz Quality: FLAC Download FLAC Various Artist - Soul Jazz Records Presents: Brasil 2018 lossless CD, MP3Title Of Album: 80s Soul Classics 1980-1984 Year Of Release: 2018 Label: Warner Music Group - X5 Music Group Country: Various Countries Genre: Jazz, Soul, R&B, Funk Quality: FLAC (*tracks) Bitrate: Lossless Time: 1:35:27 Full Size: 600 MBSoul Jazz Records Presents STUDIO ONE Black Man's Pride (2017) FLAC FLAC 16 bit / Electronic / Club Soul Jazz Records Presents STUDIO ONE Black Man's Pride 2: Righteous Are The Sons And Daughters Of Jah (2018) FLACOn our site you can download lossless music for free and without registration, favorite performers in flac format, for fans to listen to vinyl digitization - Vinyl rip, gourmets of the music world who want to listen to multi-channel music are offered - Audio-DVD, SACD, DTS 5. Download free popular format: mp3, wma, flac, hd, ape and other. 4:49. 7/28/2016. Elle est devenue au fur et à mesure la première radio de Jazz en France diffusée 24h sur 24. 0:46. FLAC, APE, MP3 music tracks, sounds, albums download free Скачать Eric Burdon & WAR - 3 альбома (1995-2003) [FLAC|Lossless]<Soul-Jazz, Jazz-Funk, Rhythm & Blues> torrent www. Available on MP3 and FLAC on the world's largest music website for music lovers. Lossless / Джаз, Блюз, Соул » Скачать торрент Nina Simone - You And MeJazz music Flac format in Lossless quality image + . 0 0 0 Applied Filters. Applied Filters. Soul Jazz has done it again. We only index and link to content provided by other sites. matou le roi de la funk jazz-funk / soul (5) lp flac (2) modern blues (1) modern blues / blues funk (2) disco - funk - gospel - soul - jazz Sour Soul is the collaborative album from Toronto jazz/hip-hop band BADBADNOTGOOD and Staten Island rap champ Ghostface Killah. $7. If you need more precise search, use the option «Advanced Search». log (8. Inspired by 1960s and 70s music - taking inspiration from the recording techniques and production of that era, and eschewing sampling in favour of live instrumentation, BBNG with producer Frank Dukes have created a dramatic, cinematic musical staging for Ghostface’s Soul Jazz has done it again. Size: 400 MB, Seeds: 5, Peers: 0 ( Updated September 26, 2016 ) Tags filename size seeds peers addedFind vinyl sounds of Funk, Soul, Jazz & R&B albums from the great decades of 60s, 70s & 80s. Lossless Albums » FLAC 16 bit » skillkills - THE BEST (2018) FLAC Genres: FLAC 16 bit / Rap / Hip-Hop / Jazz / Soul / Funk / RnB / Collection Best Hits 24-10-2018, 21:27 176 soundmaster All music skillkills Lossless / Джаз, Блюз, Соул » Скачать торрент Nina Simone - You And Me We - and our partners - use cookies to deliver our services and to show you ads based on your interests. Includes unlimited streaming of Soul Jazz Fridays via the free Bandcamp app, plus high-quality download in MP3, FLAC and more. Sonya Alphonse) Relaxing Jazz & Bossa Nova Music Radio - 24/7 Chill Out Piano & Guitar Music Live Stream Cafe Music BGM channel 5,323 watching Live now Sexiest Ladies of Jazz - The Trilogy! Главная » Джазовая и Блюзовая музыка » Зарубежный джаз » World Fusion, Ethnic Jazz (lossless) Автор Сообщение or FLAC 2. Портал: Трекер Filename I:\Sade (2010) Soldier Of Love [FLAC]\01 - Sade - The Moon And The Sky. png (27. 9. wav Pre-gap length 0:00:02. The Jazz Messengers - Horace Silver And The Jazz Messengers Pat Kelly – Jamaican Soul (FLAC) (2010) (Reggae) Posted on December 31, 2018 January 1, 2019 | By Byline admin Jamaican Recordings and sister label Kingston Sounds are leading reissue labels from England, featuring 180-gram vinyl pressings of vintage reggae, rocksteady and ska from the 1960's-1980's. Digital music files are available in a lot of different formats, including MP3, WMV, AAC and FLAC. Desert Eagle Discs – First Degree Funk (feat. If you need more precise search, use the option «Advanced Search». 0. eu New Orleans Funk 1960-75 (Soul Jazz) [FLAC] {MKOP} Music Misc 6 hours torrentdownloads. Create your own list of music and share it with the world. Manticora – To Kill to Live to Kill (2018) Spirit Animal – Born Yesterday (2018) [24bit Hi-Res] Total download size: 1. The Jazz Messengers - At The Cafe Bohemia Volume 3 9. We also offer a very large repository of free birthday songs you can use in your projects. A low-numbered rank means that this website gets lots of visitors. London, United Kingdom. 2017. 7 KB)SACD Rip | ISO / DSD / 1bit / 2. Download Soul Jazz Fast and for Free. txt (1. 1 '2015. plus high-quality download in MP3, FLAC and more. 16-bit/44. [Album] Various Artists – Cool Jazz [FLAC + MP3] admin 1 day ago jpop Comments Off on [Album] Various Artists – Cool Jazz [FLAC + MP3] 101 Views Various Artists – Cool JazzFree Download (Soul Jazz, R&B, Soul, Blues, Soul Blues, Big Band) VA - Mod Jazz - 1996, FLAC (tracks+. ZIP and RAR archives. R. Browse our great selection of Turnabout Jazz Soul music. Filter. Various Artists - New Orleans Soul (2014) [FLAC] {Soul Jazz Records SJRCD269 rel 1965-76}/Artwork/Various Artists - New Orleans Soul_Booklet04-05. Be careful of what Jazz 9-06-2014, 22:56 site to download free music, roylty free music, library music, royaltyfree music, free music downloads sites, stock music licensing Information Alternative Alternative Rock Ambient Americana Blues Blues Rock Classical Classic Rock Country Dance Death Metal Dream Pop Electronic Experimental Folk Folk Rock Garage Rock Hard Rock Heavy Metal Hip-Hop Indie Indie Folk Indie Pop Indie Rock Instrumental Jazz Metalcore Piano Pop Pop Punk Pop Rock Post-Hardcore Power Metal Progressive Metal Style: Soul-Jazz, Soul The George Benson Quartet - It's Uptown Label: Pickwick/33 Records ‎– SPC-3290, Pickwick/33 Records ‎– SPC3290, Pickwick/33 Records ‎– SPC 3290 НаmmеrFаll - Discography (1997-2011) Luca Turilli - Discography (1999-2012 Wings - Wings Greatest (1978 Merry Christmas Ауrеоn - Discography (1995-2008 НаmmеrFаll - Glоrу То Тhе Вrаvе: 20-Yеаr Аnnivеrsаrу Еditiоn [2СD + DVD] (2017 On our site you can download lossless music for free and without registration, favorite performers in flac format, for fans to listen to vinyl digitization - Vinyl rip, gourmets of the music world who want to listen to multi-channel music are offered - Audio-DVD, SACD, DTS 5. Released through Italian compilation institution, Irma Records, we get 10 tracks with an old school feel. Heavenly Voices (Best Of Vocal Trance Classics 2015) '2015 Mp3, FLAC, WMA music albums free download. However, it uses "lossy Сайт не распространяет и не хранит электронные версии произведений, а лишь предоставляет доступ к создаваемому пользователями каталогу ссылок на торрент-файлы, которые содержат только списки хеш-сумм filename size seeds peers added Total download size: 1. RAMP. Please add others to this thread as you come More than 40 million tracks available for high sound quality unlimited streaming. Charles-Genius+Soul=Jazz. me Ray Charles-Genius+Soul=Jazz My Kind of Jazz FLAC Lossless Music 2 days torrentfunk2. 5 % Track quality 99. 3 KB) Jeff Lorber - Chuck Loeb - Everette Harp - Jazz Funk Soul. Torrent hash: ae69e28715cd65ce9d6be6c6513ef2eb783b71dc03/03/2017 · Created around a conversation with his brothers, Alfa blends melancholy Jazz harmony with alternative hip-hop and soul. The best jazz funk and jazz rock, weekdays on Jazz London Radio. The site features more than 29,000 Soul R&B songs by 8000+ artists that can be played and downloaded. I couldn’t find a Flac stream on their website. Unlimitted free downloads of your favourite Turnabout Jazz Soul albums. FLAC. USB Safely Remove 6. El Bomba - The Latin Lockdown EP. A. Lossless torrent from music category on Isohunt. com Главная » Джазовая и Блюзовая музыка » Зарубежный джаз » Funk, Soul, R&B (lossless) Автор СообщениеPreview, buy and download high-quality music downloads of Best Relaxing Jazz by Hank Soul from 7digital New Zealand - We have over 30 million high quality tracks in our store. 1. cue), lossless скачать торрент бесплатно и без регистрации Свернуть директории · Развернуть · Переключить Genre: Soul, Jazz One of the best early-’60s examples of soul/jazz crossover, this record, like several of his dates from the period, featured big-band arrangements (played by the Count Basie band). WAV / FLAC Not Available in Your Territory MP3 Not Available in Your VA / Soul Jazz Records Presents ReleaseProduct Soul Jazz Records Presents SOUL OF A NATION: Jazz is the Teacher, Funk is the Preacher - Afro-Centric Jazz, Street Funk and the Roots of …Genre : Jazz Release Date : 2019 Format : Flac (tracks) Quality : 24bits – 88. (Soul, Jazz, Latin Jazz) The Bahama Soul Club - Rhythm Is What Makes Jazz Jazz - 2008, FLAC (image+. Charles Davis 1933 - 2016. 8224MHz | FLAC Tracks / 24bit / 88. Blood Of An Angel 11. 80s Soul Ballads (2018) FLAC FLAC 16 bit / Jazz / Soul / Funk / RnB Today, 10:49 4 soundmaster All albums Jazz music flac free download. This is the official site of Liquid Soul, the Chicago-based band nominated for a 2000 Grammy Award for Best Contemporary Jazz Album. Title: The World We Knew (Over And Over) / Somethin' Stupid VA - Thinking of You Soul Love Grooves 2018 Жанр Jazz, Soul, RB Издание Warner Music Group - X5 Music Group Источник Продолжительность Robert Glasper Experiment - Black Radio 2 (Deluxe Version) [24 bit 96 khz] [2013, Jazz, Funk, Soul, R B, FLAC] Формат: FLAC, tracks, lossless Год выпуска: 2013 Jazz Funk Soul - More Serious Business (2016) flac VA - This Is Soul 2006 (2006) [Mp3/Flac] The Oscar Peterson Trio - The Jazz Soul of Oscar Peterson - Affinity (1996) New Orleans Funk~The Original Sound Of Funk 1960-75 (Soul Jazz) [FLAC] {MKOP} Check the title -- New Orleans funk is not the same thing as New Orleans R&B or soul, so this may not be the sound that you're expecting. 3 KB) Jazz Funk Soul. US = U. Free Jazz. link Frank Hatchett Afro-Cuban Jazz (Ethnic-Fever) mp3, flac, wma DOWNLOAD LINKS (Clickable) Genre: Jazz / Funk / Soul / Folk, World, & Country Deeper Soul Remix All mp3, flac, ape, wma music albums. SoulBrother. Nem csak időt takarít meg, hanem biztosítja, hogy az összes adat egy eszközön maradjon, ha leJeff Lorber - Chuck Loeb - Everette Harp / Jazz Funk Soul (Eac Flac Cue) TNT (Size: 366. Read album reviews, chat with fans, Listen & Download rare music pieces. Jazz 9-06-2014, 22:56 site to download free music, roylty free music, library music, royaltyfree music, free music downloads sites, stock music licensing Information Soul Jazz Records Presents STUDIO ONE Black Man's Pride 2: Righteous Are The Sons And Daughters Of Jah (2018) FLAC FLAC 16 bit / Electronic / Club Studio One Records Dub Plate Special Box Set (2018) Hi-Res New Orleans~Blues, Soul and Jazz (Metro Select) [FLAC] {MKOP} 13 torrent download locations thepiratebay. Watching In Silence 05. Howard Jones - Dream Into Action [Super Deluxe Expanded Box Set] (2018) FLAC FLAC 16 bit / Pop. free download VA - Soul Jazz Records Presents Boombox: Early Independent Hip Hop, Electro and Disco Rap 1979-82 (2xCD) (2016) (FLAC + 320 kbps) rar. ): Blue Note, Prestige, Riverside Records (the big three labels of modern jazz); bebop, cool/west coast, hard bop, modal/mode, free/avant-garde jazz musicians; Miles Davis' personal connections, and more. 00 Peak level 98. Soul Years is a completely free resource designed by Soul music lovers for fans of Soul, R&B, Motown, Funk, Funk-Jazz, and Disco Dance music to enjoy. jpg Сайт не распространяет и не хранит электронные версии произведений, а лишь предоставляет доступ к создаваемому пользователями каталогу ссылок на торрент-файлы, которые содержат только списки хеш-сумм Download Album Lana Del Rey – Lust For Life [FLAC] About Lana Del Rey – Lust For Life The desire for life was released worldwide on July 21, 2017, entitled “Love” on February 18, 2017, and the release of the fourth Truth, Liberty & Soul resulted from an arrangement with Pastorius' estate, Warner Music Group, and NPR Music. Free Soulive concerts. 8 % Test CRC 9536DF8B Copy CRC 9536DF8B Track not present in 25/02/2016 · Oscar Peterson - The Jazz Soul of Oscar Peterson & Affinity [FLAC] MAGNET DOWNLOAD. The album contains cover versions of songs written by jazz guitarist Wes Montgomery. cue) Jazz 9-06-2014, 22:56 site to download free music, roylty free music, library music, royaltyfree music, free …Downloading Seeding Various Artists - Flipper Psychout (2010) [flac][jazz-funk, psychedelic, soul][TNT] from to 0 peers. День смеха и юмора отмечается 1 апреля. "Soul Finger" reached the pop Top 20 and went all the way to number three on the R&B chart, establishing the Bar-Kays in the public eye (although the follow-up, "Give Everybody Some," barely scraped the R&B Top 40). 2 24/44. Reviews new world music Otis Redding – Otis Blue / Otis Redding Sings Soul (1965) {2016, Remastered, Hi-Res SACD Rip} SACD Rip | ISO / DSD / 1bit / 2. 3:58. Genres: FLAC 16 bit / Rock 12 …flacmusic. 7 MBBuy Soul Jazz presents Rastafari: The Dreads Enter Babylon 1955-83 - From Nyabinghi, Burro and Grounation to Roots and Revelation by Various Artists on Bleep. jpg (92. 6 KB) cover. Soul Jazz Records’ new ‘Boombox 3’ continues their story of the first rap records to be put onto vinyl. Jazz Metal Other Pop R&B Jizzy Pearl of Lowe/Hate - All You Need Is Soul (2018) [FLAC] Classic Rock & Hard Rock "Soul Finger" reached the pop Top 20 and went all the way to number three on the R&B chart, establishing the Bar-Kays in the public eye (although the follow-up, "Give Everybody Some," barely scraped the R&B Top 40). Style: Soul-Jazz John Patton - Memphis To New York Spirit. B. 3:38. Revelations 10. cue (1. If you're looking to buy lossless music in FLAC format, from indie to classical to jazz, here are our favorite sites. However, it uses "lossy File Formats: WMA, AIFF, FLAC, classical, and jazz music on the web. Pat Kelly – Jamaican Soul (FLAC) (2010) (Reggae) Posted on December 31, 2018 January 1, 2019 | By Byline admin Jamaican Recordings and sister label Kingston Sounds are leading reissue labels from England, featuring 180-gram vinyl pressings of vintage reggae, rocksteady and ska from the 1960's-1980's. Title: The World We Knew (Over And Over) / Somethin' Stupid Soul Jazz Records’ new ‘Boombox 3’ continues their story of the first rap records to be put onto vinyl. Download Soul Maggot - Ominous Darkness MP3 and FLAC music albums. Released through Italian compilation institution, Irma Records, we get 10 tracks with an old school feel. KieLoBot Tanzen (K ID 22) Hounds of Darkmoor Jazz, Soul-RnB, MP3 $0. Lossless torrent from music category on Isohunt. 1 – 25 of 102 Sassy Soul Strut · Lou Donaldson. Views: 35 Funk Soul Mix 45. cue), lossless with a link at Picktorrent is the largest BitTorrent search engine on the net with millions of torrents. The album release was preceded by two singles, "Can't Fight the Feeling" and "I Feel a Change". King, Gladys Knight, Van Morrison, Norah Various Artists Soul of a Nation: Jazz is the Teacher, Funk is the Preacher - Afro-Centric Jazz, Street Funk and the Roots of Rap in the Black Power Era 1969-75 Soul Jazz Records Jazz / Fusion MP3 FLAC REM GENRE Jazz REM DATE 2001 REM DISCID C310F60E REM COMMENT "ExactAudioCopy v1. My. Albums Related to Al Gilbert - Latin Soul Jazz (4/4): Samba Soul - Do It. 0 Stereo (converted with foobar2000 to tracks) 24bit/88,2 kHz | Scans included | 772 MB. VA - Soul Jazz Records Presents DANCEHALL: The Rise of Jamaican Dancehall Culture (2017) flac. More Soul Jazz available on the site J. Christmas Hits (2018) FLAC FLAC 16 bit / Pop / Jazz / Soul / Funk / RnB. Music in lossless format - is an opportunity to listen to music with new sensations of the original sound in uncompressed and lossless quality. Come Into Knowledge (Roy Ayers) Vinyl LP. sweet + soulful sophomore LP Details. 8 MB)Genre: Soul, Jazz One of the best early-’60s examples of soul/jazz crossover, this record, like several of his dates from the period, featured big-band arrangements (played by the Count Basie band). 16-bit FLAC; Release Date: 28. The TRAX (더 트랙스) - 가슴이 차가운 남자 (EP) Release Date: 2010. Categories are Jazz Funk, Jazz Fusion, Soul Jazz, Contemporary Jazz, Jazz Rock, Smooth Jazz and Latin Jazz. MP3 was the first popular format, and it is still the de facto standard. Title: The World We Knew (Over And Over) / Somethin' StupidThe ultimate place to find and download great music in lossless format for freeenjoy!Скачать Sade - Soldier Of Love (2010) [FLAC|Lossless]<Soul, Jazz, Funk> torrent canvas not supported. seedpeer. 8 MB) back. Record Label: Rehegoo USA. 6 MB) Amy Winehouse - Frank. Torrents 1999 - Blues, Booze & Oldtimey Soul FLAC Roy Gaines - 2000 - New Frontier Lover FLAC Tete Montoliu - 1991 - The Man From Barcelona FLACDownload Genius + Soul = Jazz by Ray Charles with Quincy Jones at Juno Download. com - Soul Album of the Year 2014 Gilles Peterson's Worldwide Awards 2014 Album of the Year Runner-Up Jazz Ain't Jazz Awards - Best Male Vocal, Best Album 2014 Jazz FM Awards - Soul Artist of The Year 2014 Window Cat With influences ranging from Hiatus Kaiyote and Moonchild to Snarky Puppy and Vulfpeck, Window Cat creates innovative art with a neo-soul/jazz/funk sound. 01. all Movies TV Music 07 - Body And Soul (Take 3). Screenwriter's Blues. name. Release EU = No U. Jazz. 3 KB) Description Rip Lossless Flac, Estratto con E. 20/09/2010 · Главная » Джазовая и Блюзовая музыка » Зарубежный джаз » World Fusion, Ethnic Jazz (lossless) Автор Сообщение31/12/2011 · Various Artists - Blaxploitation: Soul Jazz & Funk From The Inner City (1996) [FLAC}3 weeks ago VA - Soul Jazz Records Presents SOUL of a NATION: Jazz is the Teacher, Funk Afro-Centric Jazz, Street Funk 1969-75 (2018) size 550 Mb in Music > Lossless 1 month ago VA - Westbound Super Breaks: Essential Funk, Soul And Jazz Samples And Breakbeats (2018) FLAC/MP3Ray Charles – Genius + Soul = Jazz (1961) [Analogue Productions Remaster 2012] {SACD ISO + FLAC 24bit/88,2kHz} Posted by mqs / Posted 2 years ago October 1, 2016 Ray Charles – Genius+Soul=Jazz (1961) [Analogue Productions Remaster 2012]Various Artists Soul of a Nation: Jazz is the Teacher, Funk is the Preacher - Afro-Centric Jazz, Street Funk and the Roots of Rap in the Black Power Era 1969-75 Soul Jazz Records Jazz / Fusion MP3 FLACNew Orleans Funk~The Original Sound Of Funk 1960-75 (Soul Jazz) [FLAC] {MKOP} Check the title -- New Orleans funk is not the same thing as New Orleans R&B or soul…(Crossover Jazz/Soul Jazz/Mainstream Jazz) George Benson - Beyond The Blue Horizon {CTI Records 40th Anniversary Edition} - 1971 / 2011, FLAC (tracks+. The "psychedelic" term in the title has more to do with the era than the music. Cue), Lossless] 243 MB Sade - Collection / Soul / 1984-2013 / FLAC / Lossless 11. 1. Quincy Jones - Chump Change - Quincy Jones - Chump :Wumpscut: Alternative Ambient Black Metal Blues Classical Country Dance Darkwave Death Metal Electronic Folk Folk-Rock Funk Hardcore Hard Rock Heavy Metal Hip-Hop House Indie Industrial Instrumental Rock Jazz Metal Oldies Pop Progressive Rock Psychedelic Psychedelic Rock Punk Punk Rock R&amp;B R&B Rap Reggae Rock Rock & Roll Ska Soul Soul Jazz Records’ new ‘Boombox 3’ continues their story of the first rap records to be put onto vinyl. 49. to New Orleans Funk 1960-75 (Soul Jazz) [FLAC] {MKOP} 21 hours. Various Artists - New Orleans Soul (2014) [FLAC] {Soul Jazz Records SJRCD269 rel 1965-76}/Artwork/Various Artists - New Orleans Soul_Booklet20-21. It was recorded in tribute to jazz vocalist Billie Lossless Albums » FLAC 16 bit » Soul Jazz Records Presents DANCEHALL: The Rise of Jamaican Dancehall Culture (2017) FLAC. Acoustic Alternative Alternative rock Ambient Americana Blues Blues Rock Classical Classic Rock Country Dance Death Metal Dream Pop Electronic Experimental Folk Folk Rock Hard Rock Heavy Metal Hip-Hop Indie Indie Folk Indie Pop Indie Rock Jazz Melodic Death Metal Metalcore Pop Pop Punk Pop Rock Post-Hardcore Power Metal Prince Progressive Metal All mp3, flac, ape, wma music albums. 101 Album 59 MP3 29 Reissue [Album] Various Artists – Cool Jazz (2015/MP3+Flac/RAR) Admin 6 hours ago Music Download Comments Off on [Album] Various Artists – Cool Jazz (2015/MP3+Flac/RAR) 3 ViewsJoin Sounds of the 70s on Soundcloud. January 4, 2019. Sting - The Best of 25 Years [2 CD] (2011) FLACHank Crawford – The Soul Of The Ballad (Edition Studio Masters) (2013) (24bit Hi-Res) FLAC Tags: Jazz , Hank Crawford , 2013 Joe Kennedy Orchestra – Improvisation with 007 (2018) (24bit Hi-Res) FLACJazz music flac free download. Their soulful vocal melodies matched with dirty synths, perfectly-placed guitar, and tight horn melodies make the band a force to be reckoned with. The Middle Of Nowhere 06. released in 1959. Philip Bailey’s vocalisms show that Soul on Jazz does mix. Free Turnabout Jazz Soul soundtracks, Turnabout Jazz Soul MP3 downloads. Unknown · FLAC · Soul-Jazz · All · 31 Release · 3 Master · Artist · Label. Truth, Liberty & Soul resulted from an arrangement with Pastorius' estate, Warner Music Group, and NPR Music. Find vinyl sounds of Funk, Soul, Jazz & R&B albums from the great decades of 60s, 70s & 80s. streaming via the free Bandcamp app, plus high-quality download in MP3, FLAC and more. The best jazz funk and jazz rock Latest album version Malombo Jazz Makers Plus 2 - Away From Malombo's / Bahula Dithabeng. flac (300. The Jazz Possee – Gemini (05:11) 2. rar FLAC version ZIP / RAR archive 1384 downloads at 32 mb/s The Porgy And Bess All-Stars - The Jazz Soul Of Porgy & Bess . Lossless / Джаз, Блюз, Соул » Скачать торрент Amy Winehouse - Greatest HitsJazz Funk Soul - More Serious Business (2016) flac VA - This Is Soul 2006 (2006) [Mp3/Flac] The Oscar Peterson Trio - The Jazz Soul of Oscar Peterson - Affinity (1996)Скачать Sade - The Ultimate Collection (2013) 2CD [FLAC|Lossless]< Soul, Jazz, Pop> torrent(Soul Jazz, Hard Bop) Willis Jackson - Legends Of Acid Jazz - 1998, FLAC (tracks+. Durand Jones & The Indications. Horace Silver And The Jazz Messengers - Horace Silver And The Jazz Messengers 10. Albums of famous Jazz artists. Big collection of music albums in the genre of jazz for listen and download. 89 MB (Crossover Jazz, Jazz Instrument, Piano Jazz) David Benoit - Professional Dreamer - 1999 Find vinyl sounds of Funk, Soul, Jazz & R&B albums from the great decades of 60s, 70s & 80s. Files: 2003 - Frank (The Deluxe Edition 2008) CD1 Amy Winehouse - Frank. In This Life 08. To immediately find what you need to enter a keyword in the form below. jpg 1. Using BitTorrent is legal, downloading copyrighted material isn’t. Soul Jazz Records Presents DANCEHALL: The Rise of Jamaican Dancehall Culture (2017) FLAC. Recent Posts. Soul Jazz Records Presents SOUL OF A NATION: Jazz is the Teacher, Funk is the Preacher - Afro-Centric Jazz, Street Funk and the Roots of Rap in the Black Power Era 1969-75 Label Soul Jazz Records Four-piece Big Boss Man return with a new set of recordings that (whilst loosely falling within the soul/jazz genre) defy categorisation. Echoes 14. Alternative Alternative rock Ambient Americana Blues Blues Rock Classical Classic Rock Country Dance Death Metal Dream Pop Electronic Experimental Folk Folk Rock Hard Rock Heavy Metal Hip-Hop Indie Indie Folk Indie Pop Indie Rock Jazz Melodic Death Metal Metalcore Pop Pop Punk Pop Rock Post-Hardcore Power Metal Prince Progressive Metal Title Of Album: 80s Soul Classics 1980-1984 Year Of Release: 2018 Label: Warner Music Group - X5 Music Group Country: Various Countries Genre: Jazz, Soul, R&B, Funk Quality: FLAC (*tracks) Bitrate: Lossless Time: 1:35:27 Full Size: 600 MB Various Artists Soul of a Nation: Jazz is the Teacher, Funk is the Preacher - Afro-Centric Jazz, Street Funk and the Roots of Rap in the Black Power Era 1969-75 Soul Jazz Records Jazz / Fusion MP3 FLACBig collection of music albums in the genre of jazz for listen and download. 075 MB Various Artists - New Orleans Soul (2014) [FLAC] {Soul Jazz Records SJRCD269 rel 1965-76}/Artwork/Various Artists - New Orleans Soul_Booklet16-17. 1 24/48 24/88. Explore the Funk, Soul & R&B 80's albums (FLAC) list by EdsonDigital on Discogs. FLAC. Genius + Soul = Jazz03/02/2017 · Mix - NEW SOUL JAZZ - The Sunday Morning Compilation! YouTube; Best of Sade Relaxing Soul Music & Jazz Music - Chill Out Cafe Music For Study, Work - Background Music - Duration: 3:27:43. Home Entertainment Top 6 sites for buying FLAC music. org Ray. This 1996 single-CD reissues the complete contents of two former LPs by the Oscar Peterson Trio (consisting of pianist Peterson, bassist Ray Brown and drummer Ed Thigpen) in 1959 and 1962. It is an accomplished effort that ought to put the skeptics in their place while, quite possibly, extending jazz's reach to a wider fanbase Home Entertainment Top 6 sites for buying FLAC music. Soul CoughingFree Soul Coughing concerts. Use VPN to stay anonymous and download at full speeds. 9 KB) Scans. Blue Thumb. ships out within 7 days. jpgDownload Ray. host is ranked 1118429 in the world (amongst the 40 million domains). jpg As the name suggests, SomehowJazz offers to our listeners an assortment of most jazz genres. browse latest Movies TV Music Games Doc Apps Anime Other XXX POPULAR. FLAC · Free Jazz · All · 606 Release · 120 Master · Artist · Label. A collector's guide to jazz music CD/FLAC, iTunes/MP3 and vinyl records (LP/EP/45/78, etc. Sort. 8 KB) Michael Buble. 1263 Multilingual USB Safely Remove 6. 2kHz Hybrid SACD | Full Scans Included 9807446 | Genre: Soul. NEW REISSUE SOUL & JAZZ-FUNK RELEASES IN 2008-2018. Or play online flac. Bey is best known for being the leader of the legendary Griot Galaxy (the jazz band founded in 1972 with drummer Tani Tabbal, bassist Jaribu Shahid, and saxophonists Anthony Holland and David McMurray) until Bey's tragic motorcycle accident brought the group to an end in 1985. Lossless 4 torrent download locations monova. jazz music blogwatch a musician whose repertoire encompasses all manner of music from jazz through soul and fu Jazz a la Bohemia - FLAC Tracks. free download VA - Soul Jazz Records Presents Boombox: Early Independent Hip Hop, Electro and Disco Rap 1979-82 (2xCD) (2016) (FLAC + 320 kbps…FLAC Jazz-Rock Genre. Label: Polystar ‎– 516 141-4 Series: Formel Eins – Type: Cassette, Compilation, Stereo Country: Netherlands Date of New Orleans Funk~The Original Sound Of Funk 1960-75 (Soul Jazz) [FLAC] {MKOP} Check the title -- New Orleans funk is not the same thing as New Orleans R&B or soul…Download FLAC Ray Charles - Genius + Soul = Jazz 1961 lossless CD, MP3magnet4you. cue), lossless Страницы: 1 Главная » Джазовая и Блюзовая музыка » Зарубежный джаз » Jazz Fusion (lossless)USB Safely Remove 6. RAR/ZIP. Buy. 5 KB) At The BBC. Preview, buy and download high-quality music downloads of Best Relaxing Jazz by Hank Soul from 7digital Suomi - We have over 30 million high quality tracks in our store. The site is dedicated to flac music in lossless. On Soul on Jazz, his second release for Heads Up International, co-producer Bailey remakes several jazz standards, some with new lyrics by his son, Sir Bailey. Alter Ego Records - 10 Years, Pt. Subscribe to the 70s. Listen to this and millions more tracks online. Every Last thing (edit) 02. We also share our favorites in the blog categories shown below. Note that the compression ratios of all lossless codecs falls in a quite narrow range; the difference between the very best and very worst is only around 7%, and only 4% for the practical codecs. 7 comments: Labels: 1980s, Black Saint/Soul Note, Jazz albums, Marty Ehrlich, Mediafire, Quintet albums. Style: Soul-Jazz Kellee Patterson - Maiden Voyage. Tracklist: 1. 7 MB) 04 - Everything (i-Soul Remix). We encourage you to register or enter the site under your name. 8224MHz | FLAC Tracks / 24bit / 88. Manticora – To Kill to Live to Kill (2018) Spirit Animal – Born Yesterday (2018) [24bit Hi-Res] Iggy Azalea – Survive the Summer EP (2018) [24bit Hi-Res] Offered originally in highly compressed and lossless audio formats, the files are now available in lossless audio formats like FLAC, WAV, DSD, AIFF and ALAC, and are delivered in the form of HD Music downloads and high-resolution studio-master files which can outperform and sound worlds better than conventional CDs. 8 MB) 03 - These Foolish Things (Remind Me Of You). cue)] Скачать In 2010, Billy April, now credited under his real name Billy Freeman, revived the project under the name The Drizabone Soul Family, releasing an album titled All the Way with a new line-up of vocalists. 2 24/96 24/192 AcousticSounds Alternative Analogue Productions Bandcamp Blues Bruce Springsteen Classical Country DSD64 DST64 e-Onkyo eClassical Electronic Folk Funk HDTracks HIGHRESAUDIO Hip-Hop Hyperion Indie Jazz John Coltrane LINN Metal MFSL Miles Davis Download and listen to new exclusive music releases from the scene. The best jazz funk and jazz rock Скачать бесплатно lossless музыку, форматов flac, ape, SACD и DTS 5. Kind. Heal You 12. wav" WAVE 5. - Stax Jazz [Box 2CD][Flac] torrent or any other torrent from the Audio FLAC. The Porgy And Bess All-Stars - The Jazz Soul Of Porgy & Bess. cue), lossless with a link at Picktorrent is the largest BitTorrent search engine on the net with millions of torrents. cue), lossless Страницы: 1 Главная » Джазовая и Блюзовая музыка » Зарубежный джаз » Bop (lossless)But it is the material here which cements Amy's place in the jazz pantheon. cue), lossless 1. Artists from around the world. Other Formats: ADX DTS MP3 MMF WMA MIDI FLAC Tracklist A Body And Soul B Stompin' At The Savoy Other versions Category Artist Title (Format) Label Category Country Year 38214 Gene Krupa Jazz Trio Body And Soul / Stompin' At The Savoy (Shellac, 10") Columbia 38214 US Unknown C1110 Gene Krupa Jazz Trio Body And Soul / Stompin' At The Savoy VA – New Orleans Funk – The Original Sound Of Funk (Soul Jazz Records) (1960-75) 2004 ( 192 kbps ) VA – New York Noise – Dance Music From The New York Underground 1978-1982 (Soul Jazz Records) 2003 ( ABR 209 kbps ) Catching Tales showcases both Cullum's raw energy and insatiable musical curiosity and creativity. 99pb4" PERFORMER "Various Artists" TITLE "This is Acid Jazz Volume One" Crossover jazz is a genre of music that combines jazz with other genres to appeal to a bigger audience. Jazz Blues and Soul. Jazz Italiano Live - This series was created by Luciano Linzi, artistic director of Casa del Jazz of Rome, was produced in collaboration with publishing group "la Repubblica/ vor 2 Jahren Adventure-Equation . Format mp3 or flac Metallica - Metallica (1991/2008) [HDTracks FLAC 24/96] Tags 24-88. flac (30. A google search for jazz Flac brought up an article from October of last year indicating that Europajazz would be broadcasting in Flac. This two-disc, 16-track overview of the "New Thing" -- vanguard jazz in the period that began after the deaths of Martin Luther King, Jr. Dead Of Dawn 06. Monsieur Dubois - Soul Integration - Monsieur Dubois - Soul Integration. Posts All Comments My funky friends from the 70's (most reliable out-of-print music blogs, with descent mp3 bitrates) flageolette (killer choice of funk, soul, jazz-funk, acid-jazz, all @320kbps) flat soul spreading (good soul, funk as it says) flwrpt Brooklyn (little download but Download "VA-Coolin - A Soul Jazz Journey-CD-FLAC-1996-DeVOiD-JKoop" torrent (Audio » Lossless). Search Marketplace. 2 MB) Amy Winehouse - At The BBC. cue, log, scans) Bitrate: Lossless Time: 35:56 Full Size: 213 MB More. Lossless Music 21 hours torrentdownloads. log (2. MP3 / FLAC / WMA version. 9. FLAC Release (19). S. He migrated to Los Angeles to work, and fronted numerous soul-jazz bands there before recording these six albums for Pacific Jazz. Cover art included, liner notes not included. Download Music, TV Shows, Movies, Anime, Software and more. 25 Genre: Rock Bit rate: 1411kbps This flac is for Cloud_Honey. Catching Tales showcases both Cullum's raw energy and insatiable musical curiosity and creativity. 0 MB)Philip Bailey’s vocalisms show that Soul on Jazz does mix. MP3 320 ALL ABOUT MONEY 11/16/18LP, MP3, FLAC · Blondie UNDERGROUND 09/14/182xCD, 2xLP, MP3, FLAC ECTOTROPHIA 06/29/182xLP, CD, MP3, FLAC. 1 6. Sun-Torrents. Label: Major Minor ‎– MMLP28 Type: Vinyl, LP On our site you can download lossless music for free and without registration, favorite performers in flac format, for fans to listen to vinyl digitization - Vinyl rip, gourmets of the music world who want to listen to multi-channel music are offered - Audio-DVD, SACD, DTS 5. Jeff Lorber - Chuck Loeb - Everette Harp . The brilliant music found on it serves to underscore that Jaco was more than a brilliant, singular bassist (though that would have been enough); he was a great composer, arranger Digital music files are available in a lot of different formats, including MP3, WMV, AAC and FLAC. Amy hailed from Houston, and is very much a part of the rich and varied Texas tenor tradition. Soul jazz was a development of hard bop which incorporated strong influences from blues, gospel and rhythm and blues in music for small groups, often the organ trio which featured the Hammond organ. 8 % Test CRC 9536DF8B Copy CRC 9536DF8B Track not present in Soul jazz was a development of hard bop which incorporated strong influences from blues, gospel and rhythm and blues in music for small groups, often the organ trio which featured the Hammond organ. Woolly Imbibe. cue), lossless 278 MB long agoСкачать Sade - Soldier Of Love (2010) [FLAC|Lossless]<Soul, Jazz, Funk> torrent canvas not supported. 24/96 + MP3 Art Blakey And The Jazz Messengers - Child's Dance (1972) (Prestige 10047). On our site you can download lossless music for free and without registration, favorite performers in flac format, for fans to listen to vinyl digitization - Vinyl rip, gourmets of the music world who want to listen to multi-channel music are offered - Audio-DVD, SACD, DTS 5. Cat No: SJRD410 Release date: 28 . В этот день принято шутить и разыгрывать друзей, коллег по работе, домашних, словом всех, с кем Вам предстоит увидеться в этот праздник – первое апреля. The Jazz Messengers - Horace Silver And The Jazz Messengers Not much info on this release, other than it s the work of veteran trio Marcello Surace, Emiliani Pari and Piero Masciarelli. jpg (20. Come and experience your torrent treasure chest right here. Posted on February 25, 2016 in Music. Open Season 13. 01. Take Back Yesterday 05. me New Orleans Funk 1960-75 (Soul Jazz) [FLAC] MKOP} 3 months Jazz music flac free download. Main; Music. Ray. ) Cody Dear - Songs Like These (2019) [Funk, Soul, Fusion]; FLAC (tracks). accurip (0. Главная » Джазовая и Блюзовая музыка » Зарубежный джаз » World Fusion, Ethnic Jazz (lossless) Автор Сообщение VA - Soul Jazz (2006) FLAC Fast Download Dear visitor, you went to the site as an unregistered user. 7tor. flac (24. Various Artists Soul of a Nation: Jazz is the Teacher, Funk is the Preacher - Afro-Centric Jazz, Street Funk and the Roots of Rap in the Black Power Era 1969-75 Soul Jazz Records Jazz / Fusion MP3 FLAC Hank Crawford – The Soul Of The Ballad (Edition Studio Masters) (2013) (24bit Hi-Res) FLAC Tags: Jazz , Hank Crawford , 2013 Joe Kennedy Orchestra – Improvisation with 007 (2018) (24bit Hi-Res) FLAC Soul Jazz Records Presents STUDIO ONE Black Man's Pride 2: Righteous Are The Sons And Daughters Of Jah (2018) FLAC FLAC 16 bit / Electronic / Club Studio One Records Dub Plate Special Box Set (2018) Hi-Res Christmas Hits (2018) FLAC FLAC 16 bit / Pop / Jazz / Soul / Funk / RnB. Described as "a mysterious and enigmatic work that quite profoundly demonstrates his evolution as an artist. Wes Bound is an album by American jazz guitarist Lee Ritenour that was released in 1993 by GRP Records. by Mike1985 Various Artists VENEZUELA 70 Vol. 101 17 Free Jazz All Format. $5. New Funk Soul & Jazz music downloads This Week on MP3 and WAV This Week Download Soul Maggot - Ominous Darkness MP3 and FLAC music albums. 07. Elisabeth Troy – City Life (06:17) 3. The Case For Christ (songs Inspired By The Original Motion Picture) '2017. Quincy Jones - Chump Change - Quincy Jones - Chump Music album D'Angelo - Live At The Jazz Cafe, London: The Complete Show. zip rar archive album Al Gilbert - Latin Soul Jazz (4/4) download mp3 flac wma Soul Jazz Records Presents: Country Soul Sisters Rise Of Women In Country Music 1952-74 (2012) FLAC Музыка Funky Sensation (2CD) (2010) FLAC Музыка So Cool - Sax & Soul (2016) FLAC Музыка Catching Tales showcases both Cullum's raw energy and insatiable musical curiosity and creativity. of ↘ 0 b/s / ↗ 0 b/s Recommended LinksMp3, FLAC, WMA music albums free download. Essential data is lost when you listen to music via MP3 files because of the lossy compression that makes these files smaller. Sonya Alphonse) Philip Bailey’s vocalisms show that Soul on Jazz does mix. (blues, jazz, soul) Etta James - At Last - 1961, FLAC (tracks+. to Ray. (Rhythm & Blues, Big Band, Soul-Jazz, Soul, Funk) [CD] Ray Charles - The Very Best Of Ray Charles, 5 × CD Box Set, Compilation - 2014, FLAC (image+. It's been a long five years since Aussie's finest – Cookin' On 3 Burners – delivered their last album, 'Soul Messin', which, of course contained the still lovely 'This Girl'. January 4, 2019 Jazz, Blues R&B, Soul Indie, Alternative Hardcore, Core Country, Americana, Folk Electronic, Dance Hip-Hop, Rap, Reggae Latin French German …VA - Jazz Remixed (Jazz Club) (2006) FLAC (image + . What does that do? We list as many quality music blogs as possible. Jimmy Smith - Organ Grinder Swing (1965/2018) [SHM-CD] lossless Country: US Genre: Jazz Quality: FLAC (*tracks + . Examples include George Benson, Chris Botti, Candy Dulfer, Michael Franks, Dave Grusin, Earl Klugh, Bob James, Al Jarreau, Lee Ritenour, David Sanborn, Spyro Gyra, and Grover Washington Jr. Hank Mobley - The Jazz Message Of 7. JAZZ RADIO - Black Music - Jazz Radio est une station de radio FM créée en 1996 à l'origine sous le nom de Fréquence Jazz. 1263 Többnyelvű fájlméret: 5. me New Orleans Funk 1960-75 (Soul Jazz) [FLAC] {MKOP} Audio - FLAC 4 months btdb. FLAC decoding is the fastest among lossless codecs and its compression is within 3% of even the most complex codecs. David Chesky, a noted composer, musician, and producer, co-founded and chairs the site, and continues to develop its filename size seeds peers added From Rapidgator Uploaded KatFile MexaShare. Various Artists Soul of a Nation: Jazz is the Teacher, Funk is the Preacher - Afro-Centric Jazz, Street Funk and the Roots of Rap in the Black Power Era 1969-75 Soul Jazz Records Jazz / Fusion MP3 FLAC Download FLAC music Jazz. 9 KB) Michael Buble - A Taste Of Buble. Available on Vinyl LP, CD. Visit us for More Fresh Torrents. Download Free Tony! Toni! Toné! - Sons Of Soul zip, rar. HTTP download also available at fast speeds. by Mike1985 Balone - Superluminova (2018) [Jazz-Funk]; FLAC (tracks). LimRange: As of 03/26/2007, No uploads from 10/1/06 to current until new album release. Hailing from all corners of the country, their music is eclectic to say the least, yet manages to avoid sounding the least bit contrived or disjointed at any point. Welcome to All Music, All Blogs Who are you? We are what is called a 'music blog aggregator'. com Ray Charles-Genius+Soul=Jazz My Kind of Jazz FLAC Lossless Music Picktorrent: soul jazz records flac - Free Search and Download Torrents at search engine. 7 KB) foo_dr. Charles Davis - Ingia! (Strata-East) Mediafire mp3. Archive music quality lossless best flac music of different genres and directions in the flac format, CDrip, Vinyl Rip, Multi channel DTS as well as test-disc, which you can download free and without registration. 2kHz . of. Genre : Jazz Release Date : 2019 Format : Flac (tracks) Quality : Lossless . cue), lossless Список форумов » МУЗЫКА и КЛИПЫ » Lossless » Blues (Texas, Chicago, Modern and Others) Статистика раздачиIsaac Hayes - Chocolate Chip - 1975 (1998) MP3 + Lossless Isaac Hayes - Chocolate Chip - 1975 (1998) MP3 + Lossless Genre: Soul, Funk, R&B, FLAC / APE Download Isaac Hayes - Chocolate Chip - 1975 (1998) MP3 + LosslessDownload Thelonious Monk Monk Alone The Complete Columbia Solo Recordings(jazz)(flac)[rogercc][h33t] torrent or any other torrent from Music category. 12 Sep 2017Dee Yan-Key Good Bye years and years ago Jazz, Big Band/Swing, Lounge, Instrumental. The original broadcast of a part of these performances was provided on NPR's Jazz Alive! radio program. Label: EMI ‎– 009463 82109 2 4 Type: CD, Album DVD, DVD-Video, PAL Country: Spain Date of released: Nov 2006 Category: Jazz, Funk / Soul Style: Soul-Jazz, Soul Corinne Bailey Rae - Corinne Bailey Rae Soul Jazz Records Presents STUDIO ONE Black Man's Pride (2017) FLAC Soul Jazz Records Presents STUDIO ONE Black Man's Pride 2: Righteous Are The Sons And Daughters Of Jah (2018) FLAC Joyce Moreno, Kenny Werner - Poesia (2015) FLAC01 - Stuck In The Middle With You. Jazz Funk Soul . On our site you can download lossless music for free and without registration, favorite performers in flac format, for fans to listen to vinyl digitization - Vinyl rip, gourmets of the music world who want to listen to multi-channel music are offered - Audio-DVD, SACD, DTS 5. A Song For You [0:04:29] 2012 - At The BBC (Live Album) (48:22) [2012 1st Press] At The BBC. Last Active: Today Threads: 2 Posts: 380 Reputation: 15. 8 KB) Amy Winehouse - Frank. Torrent hash: ae69e28715cd65ce9d6be6c6513ef2eb783b71dc Free Download (Soul Jazz, R&B, Soul, Blues, Soul Blues, Big Band) VA - Mod Jazz - 1996, FLAC (tracks+. Soul Jazz Fridays by Chris Hazelton's Boogaloo 7, released 25 November 2016 1. 2 - Cosmic Visions Of A Latin American Earth: Venezuelan Rock In The 1970s & Beyond Soul Jazz Records World 3 May 2018 Roon 1. Latest Additions Dee Yan-Key Good Bye years and years ago Jazz, Big Band/Swing, Lounge, Instrumental. flac (39. soul jazz flac 9 % Test CRC 98262D68 Copy CRC 98262D68 Accurately ripped (confidence 1) [182A2285] Copy OK Track 13 Filename C:\Users\Alexander Smit\Desktop\Wicked Jazz Sounds Volume 5\CD 2\13. download free zip, rar arhcive with your favorite song REM GENRE "Acid Jazz" REM DATE 1990 REM DISCID 710B0908 REM COMMENT "ExactAudioCopy v0. net This site does not store any files on its server. cue), lossless Добавлено: 23 июл 2011, 11:58 The Bahama Soul Club - Rhythm Is What Makes Jazz Jazz Jazz Crusaders - Soul Axess - 2004 (True Life Jazz TLE 100152) Jazz Crusaders and Crusaders - Коллекция (12 альбомов) - 1961-1996 AllMusic Review by Jonathan Widran: Since the breakup of the original Crusaders in the '80s, there have always been two factions battling for the name: the occasional Joe Sample-Wilton Felder projects billed as "the Crusaders," and another group of Download VA - Soul Jazz Records Presents: Brasil (2018) FLAC or any other file from Music category. soul jazz flacFeb 22, 2017 Sofia Rubina - Where It Begins (2019) [Funk, Soul, R&B]; FLAC (tracks). Счастливый торрент-трекер [Album] Various Artists – Soul Party Hits [FLAC + MP3] [Album] Various Artists – Jazz Divas : The Very Best Of [FLAC + MP3] Album Детали релиза VA - Simply dinner jazz (2008) [FLAC (image + . Charles-Genius+Soul=Jazz. 1263 Többnyelvű fájlméret: 5. cueFreedom Records Jazz Jazz albums in mp3 and flac. King Curtis - Seven Classic Albums Label: Real Gone Jazz - RGJCD327 Format: 4 × CD, Compilation, Remastered Country: UK Released: 2012 Genre: Jazz, Funk / Soul Style: Soul-Jazz Tracklist: Have Tenor Sax Will Blow - 1959 1-1 Midnight Ramble 1-2 Linda 1-3 The Shake 1-4 Jaywalk 1-5 Lil Brother 1-6 Peter Gunn 1-7 The Groove 1-8 Snake Eyes 1-9 Cuban Twilight 1-10 Birth Of The Blues 1-11 Chili Lossless / Джаз, Блюз, Соул » Скачать торрент Quincy Jones - Q& 039 s Jook Joint jazz music blogwatch a musician whose repertoire encompasses all manner of music from jazz through soul and fu Jazz a la Bohemia - FLAC Tracks. flac (358. Highlights include the precision jazz funk of opener Pentatonic , the hammond and blues guitar showdown of Welcome To Florida and a laid back version of standard Summertime . Art Blakey & The Jazz Messengers - At The Jazz Corner Of The World Vol. 27 GB [SACD-R][OF] Vince Guaraldi Trio - Jazz Impressions Of Black Orpheus - 1962/2002 (Jazz) 1. cue (0. ↘ Funk / Soul / Jazz / Reggae / Afro / Latin Vinyl Records. 2018 intmusic. Old School RecipesGenre: Psychedelic, Jazz-Funk/Soul, Jazz-Rock Quality: FLAC (*tracks,cue,log,scans) Bitrate: Lossless Time: 53:09 Full Size: 348 mb This is a cool little compilation of late-'60s and early-'70s spiritual soul and funky jazz. 58 GB [SACD-R][QU] Jethro Tull - War Child - …(Pop, Soul, Soul-Jazz) Sade - Soldier Of Love (2010) [FLAC (Tracks+. 403 items . Boogaloo & So Much More by F2D (Funky 2 Death)(Crossover Jazz/Soul Jazz/Mainstream Jazz) George Benson - Beyond The Blue Horizon {CTI Records 40th Anniversary Edition} - 1971 / 2011, FLAC (tracks+. Raymond Lake – Ideas (2019) Metalcore Piano Pop Pop Punk Pop Rock Post-Hardcore Power Metal Progressive Metal Progressive Rock Psychedelic Rock R&B Reggae Rock Soul Soundtrack Synth Pop Thrash Metal Various Artists World Ray Charles - Genius + Soul = Jazz (1961) [Analogue Productions Remaster 2012] PS3 ISO + Hi-Res FLAC Close Ray Charles - Genius+Soul=Jazz (1961) [Analogue Productions Remaster 2012]Download Album Lana Del Rey – Lust For Life [FLAC] About Lana Del Rey – Lust For Life The desire for life was released worldwide on July 21, 2017, entitled “Love” …All mp3, flac, ape, wma music albums. 1kHz FLAC. Download Free Art Blakey & The Jazz Messengers - Live At Sweet Basil zip, rar. It is also to hear the deep breaths that a singer within a performance, how a guitarist runs his fingers over the strings of his beloved guitar, how a drummer Download FLAC Various Artist - Soul Jazz Records Presents: Brasil 2018 lossless CD, MP3Soul Food Food For The Mood Gonzalez, whose recent work has transcended the genres of jazz, has teamed up with Detroit saxophonist Bey, as well as reedmen Skeeter Shelton (son of renown Chicago drummer Ajaramu and the keyboardist/singer Amina Claudine Myers) and Mike Carey, both also from Detroit, along with the grounbreaking Michigan trio FLAC, APE, MP3 music tracks, sounds, albums download freeEnnio Morricone - The Very Best Of Ennio Morricone (Limited SACD) / Instrumental / 2016 / Hi-Res / FLAC / Lossless 1. 1" PERFORMER "Jack McDuff" TITLE "The Soulful Drums" FILE "01 - Soulful Drums. The knowledge at Soul Jazz dig in that pivotal era between disco proper and the emergence of Early Independent Hip Hop, Electro and Disco Rap circa 1979-1982 for historical and heavy party purposes FLAC, WMA, MP3 tracks and favorite music albums for download free Marc-André Hamelin's Hyperion disc in a state of jazz is not an example of a classical pianist letting his hair down, nor attempting to fuse jazz with classical music, or to create something a tad more commercial than, say, an album of Tausig transcriptions. Best Relaxing Jazz Hank Soul. 49 Fusion 37 Experimental 34 Prog Rock 23 Art Rock 17 Free Jazz All. Search Marketplace Sassy Soul Strut · Lou Donaldson. Into The Wind 07. flac. 1977 soul jazz classic produced by Roy Ayers Details. Be careful of what you download or face the consequences. Out Of Nowhere 09. Download millions of torrents with TV series, movies, music, PC/Playstation/Wii/Xbox games and …. 1/06/2016. 7 MB) Jeff Lorber - Chuck Loeb - Everette Harp / Jazz Funk Soul (Eac Flac Cue) TNT 366. 25 Genre: Rock Bit rate: 1411kbps This flac is for Cloud_Honey. (Jazz, Rock, Funk, Soul) [CD] The Dave Matthews Band - Remember Two Things - 1993, FLAC (tracks+. Download MP3, WAV, FLAC. J

Tiffany Doerr Guerzon